Gaak

Hoy: 15.12.2017

Panasonic SDR-S50 - Primeras Impresiones

Categoría Otros

Panasonic SDR-S50 - Primeras Impresiones

Compartir en Facebook

Modelo Gaak YouTube

A inicios del 2010 quise empezar a compartir videos, por lo que adquirí la cámara digital Casio EX-Z33, ya que grababa video @30fps en 848x480. Estaba feliz con esas propiedades pero luego de un tiempo me di cuenta que ello no lo es todo ya que era imposible grabar las pantallas de calculadoras o teléfonos móviles celulares, debido a la falta de auto enfoque en la grabación de videos. Esta limitación me obligó a realizar videos con enfoque fijo, es decir que manualmente le buscaba una distancia al objeto grabado y dicha distancia no podía variar (acercar o alejar) para no perder el enfoque... a esto se le sumaba que los videos tenían un audio pésimo, por lo que mis publicaciones con la Casio fueron mudos.

Ya en Abril del 2011, me enamoré de la Panasonic SDR-S50 que obviamente poseía el auto enfoque en videos, un zoom óptico enorme de 78X, y uno digital de 3500X. Aunque no graba en HD, los 720x480 @30fps son de buena calidad y me permite compartir videos mejores con calidad de audio estéreo excelente.

Lo malo es que graba los videos en formato .MOD que no es reconocido en mis editores de video como Camtasia Studio o Adobe Premiere, por lo que tengo que usar un conversor a .AVI previamente (yo uso Total Video Converter)... además los colores en su modo por defecto son bastante muertos, por lo que tengo que usar obligatoriamente al grabar en MNL con WB y IRIS (MNL: Modo Manual - WB: Balance De Blancos - IRIS: Velocidad de Obturación).

Corrección: El video.MOD obtenido puede ser renombrado a video.MPEG lo que permite que programas como Adobe Premiere lo reconozcan, así el uso de conversores de video es innecesario.

Aquí les dejo un MediaInfo (MPC) de un video original grabado con la Panasonic SDR-S50.

General
Complete name                    : C:\balanza.MOD
Format                           : MPEG-PS
File size                        : 203 MiB
Duration                         : 3mn 2s
Overall bit rate                 : 9 301 Kbps

Video
ID                               : 224 (0xE0)
Format                           : MPEG Video
Format version                   : Version 2
Format profile                   : Main@Main
Format settings, BVOP            : Yes
Format settings, Matrix          : Default
Format settings, GOP             : M=3, N=15
Duration                         : 3mn 2s
Bit rate mode                    : Variable
Bit rate                         : 9 286 Kbps
Width                            : 720 pixels
Height                           : 480 pixels
Display aspect ratio             : 4:3
Frame rate                       : 29.970 fps
Standard                         : NTSC
Color space                      : YUV
Chroma subsampling               : 4:2:0
Bit depth                        : 8 bits
Scan type                        : Interlaced
Scan order                       : Top Field First
Bits/(Pixel*Frame)               : 0.897
Stream size                      : 193 MiB (95%)

Audio
ID                               : 192 (0xC0)
Format                           : MPEG Audio
Format version                   : Version 1
Format profile                   : Layer 2
Duration                         : 3mn 2s
Bit rate mode                    : Constant
Bit rate                         : 256 Kbps
Channel(s)                       : 2 channels
Sampling rate                    : 48.0 KHz
Video delay                      : -66ms
Stream size                      : 5.58 MiB (3%)

Menu

En conclusión, la Panasonic SDR-S50 para el precio que tiene, es una filmadora de buenas prestaciones que me gusta, aunque también buscaré baterías adicionales ya que la autonomía con la que viene es poca.

Artículo visto 1848 veces

Publicado el 05.06.2011 por Gustavo Portales en Otros

Nombre

Comentario

Comentarios: Panasonic SDR-S50 - Primeras Impresiones

Compartir en Facebook

Aún no tenemos comentarios en este Artículo, deje el suyo!